<?xml version="1.0" standalone="no"?>
<!DOCTYPE svg PUBLIC "-//W3C//DTD SVG 1.1//EN" "http://www.w3.org/Graphics/SVG/1.1/DTD/svg11.dtd" >
<svg xmlns="http://www.w3.org/2000/svg">
<metadata>Generated by IcoMoon</metadata>
<defs>
<font id="uni-bonn" horiz-adv-x="1024">
<font-face units-per-em="1024" ascent="960" descent="-64" />
<missing-glyph horiz-adv-x="1024" />
<glyph unicode="&#x20;" horiz-adv-x="512" d="" />
<glyph unicode="&#xe900;" glyph-name="arrow-down" d="M1014.4 694.4c-12.8 12.8-38.4 12.8-51.2 0l-451.2-451.2-451.2 451.2c-12.8 12.8-38.4 12.8-51.2 0s-12.8-38.4 0-51.2l476.8-476.8c6.4-6.4 16-9.6 25.6-9.6s19.2 3.2 25.6 9.6l473.6 476.8c16 12.8 16 35.2 3.2 51.2z" />
<glyph unicode="&#xe901;" glyph-name="arrow-top" d="M1014.4 198.4c-12.8-12.8-38.4-12.8-51.2 0l-451.2 451.2-451.2-451.2c-12.8-12.8-38.4-12.8-51.2 0s-12.8 38.4 0 51.2l476.8 476.8c6.4 6.4 16 9.6 25.6 9.6s19.2-3.2 25.6-9.6l476.8-476.8c12.8-12.8 12.8-35.2 0-51.2z" />
<glyph unicode="&#xe902;" glyph-name="close" d="M1024 902.4l-57.6 57.6-454.4-454.4-454.4 454.4-57.6-57.6 454.4-454.4-454.4-454.4 57.6-57.6 454.4 454.4 454.4-454.4 57.6 57.6-454.4 454.4z" />
<glyph unicode="&#xe903;" glyph-name="arrow-right" d="M1011.2 460.8l-307.2 294.4c-19.2 19.2-48 19.2-67.2 0s-19.2-48 0-64l224-217.6h-812.8c-25.6 0-48-19.2-48-44.8s22.4-44.8 48-44.8h812.8l-224-217.6c-19.2-19.2-19.2-48 0-64 9.6-9.6 22.4-12.8 35.2-12.8s25.6 3.2 35.2 12.8l304 294.4c16 16 16 44.8 0 64z" />
<glyph unicode="&#xe904;" glyph-name="arrow-left" d="M12.8 460.8l307.2 294.4c19.2 19.2 48 19.2 67.2 0s19.2-48 0-64l-224-217.6h812.8c25.6 0 48-19.2 48-44.8s-22.4-44.8-48-44.8h-812.8l224-217.6c19.2-19.2 19.2-48 0-64-9.6-9.6-22.4-12.8-35.2-12.8s-25.6 3.2-35.2 12.8l-304 294.4c-16 16-16 44.8 0 64z" />
<glyph unicode="&#xe905;" glyph-name="external" d="M793.6 384c6.4 0 9.6-3.2 12.8-6.4s6.4-6.4 6.4-12.8v-185.6c0-44.8-16-86.4-48-118.4s-70.4-48-118.4-48h-480c-44.8 0-86.4 16-118.4 48s-48 70.4-48 118.4v480c0 44.8 16 86.4 48 118.4s70.4 48 118.4 48h406.4c6.4 0 9.6-3.2 12.8-6.4s6.4-6.4 6.4-12.8v-38.4c0-6.4-3.2-9.6-6.4-12.8s-6.4-6.4-12.8-6.4h-406.4c-25.6 0-48-9.6-64-25.6-19.2-19.2-25.6-38.4-25.6-64v-480c0-25.6 9.6-48 25.6-64 19.2-19.2 38.4-25.6 64-25.6h480c25.6 0 48 9.6 64 25.6 19.2 19.2 25.6 38.4 25.6 64v185.6c0 6.4 3.2 9.6 6.4 12.8s6.4 6.4 12.8 6.4h38.4zM1014.4 886.4c6.4-9.6 9.6-16 9.6-25.6v-294.4c0-9.6-3.2-19.2-9.6-25.6s-16-9.6-25.6-9.6c-9.6 0-19.2 3.2-25.6 9.6l-102.4 99.2-374.4-374.4c-3.2-3.2-9.6-6.4-12.8-6.4-6.4 0-9.6 3.2-12.8 6.4l-64 64c-3.2 3.2-6.4 9.6-6.4 12.8 0 6.4 3.2 9.6 6.4 12.8l371.2 377.6-99.2 99.2c-6.4 6.4-9.6 16-9.6 25.6s3.2 19.2 9.6 25.6c6.4 9.6 16 12.8 25.6 12.8h294.4c9.6 0 16-3.2 25.6-9.6z" />
<glyph unicode="&#xe906;" glyph-name="search" d="M1014.4-12.8l-249.6 249.6c67.2 76.8 105.6 176 105.6 284.8 3.2 243.2-192 438.4-435.2 438.4-240 0-435.2-195.2-435.2-435.2s195.2-435.2 435.2-435.2c108.8 0 211.2 41.6 284.8 105.6l249.6-249.6c6.4-6.4 12.8-9.6 22.4-9.6 6.4 0 16 3.2 22.4 9.6 12.8 12.8 12.8 32 0 41.6zM60.8 524.8c0 208 169.6 374.4 374.4 374.4 208 0 374.4-169.6 374.4-374.4s-169.6-374.4-374.4-374.4c-204.8-3.2-374.4 166.4-374.4 374.4z" />
<glyph unicode="&#xe907;" glyph-name="whatsapp-outline" d="M528 710.4c-134.4 0-246.4-108.8-246.4-243.2 0-44.8 12.8-89.6 35.2-124.8l-44.8-131.2 137.6 44.8c35.2-19.2 76.8-28.8 118.4-28.8 134.4 0 246.4 108.8 246.4 243.2 0 131.2-112 240-246.4 240zM528 262.4c-41.6 0-80 12.8-115.2 35.2l-80-25.6 25.6 76.8c-25.6 35.2-38.4 76.8-38.4 121.6 0 112 92.8 204.8 208 204.8s208-92.8 208-204.8-92.8-208-208-208zM640 416c-6.4 3.2-35.2 16-41.6 19.2s-9.6 3.2-12.8-3.2c-3.2-6.4-16-19.2-19.2-22.4s-6.4-3.2-12.8 0c-6.4 3.2-25.6 9.6-48 28.8-19.2 16-28.8 35.2-32 41.6s0 9.6 3.2 12.8c3.2 3.2 6.4 6.4 9.6 9.6s3.2 6.4 6.4 9.6c3.2 3.2 0 6.4 0 9.6s-12.8 32-19.2 44.8c-6.4 12.8-9.6 9.6-12.8 9.6s-6.4 0-12.8 0c-3.2 0-9.6 0-16-6.4s-22.4-19.2-22.4-51.2c0-28.8 22.4-57.6 25.6-60.8s41.6-67.2 102.4-89.6c60.8-22.4 60.8-16 73.6-16 9.6 0 35.2 16 41.6 28.8s6.4 25.6 3.2 28.8c-6.4 3.2-9.6 3.2-16 6.4zM512 960c-281.6 0-512-230.4-512-512s230.4-512 512-512c281.6 0 512 230.4 512 512s-230.4 512-512 512zM512-16c-259.2 0-467.2 208-464 464 0 259.2 208 467.2 464 464 256 0 467.2-211.2 464-467.2 0-256-208-464-464-460.8z" />
<glyph unicode="&#xe908;" glyph-name="whatsapp" d="M528 672c-115.2 0-208-92.8-208-204.8 0-44.8 16-86.4 38.4-121.6l-25.6-76.8 80 25.6c32-22.4 70.4-35.2 115.2-35.2 115.2 0 208 92.8 208 204.8s-92.8 208-208 208zM649.6 380.8c-6.4-12.8-28.8-28.8-41.6-28.8-9.6 0-9.6-9.6-73.6 16-60.8 22.4-99.2 86.4-102.4 89.6s-25.6 32-25.6 60.8c0 28.8 16 44.8 22.4 51.2s12.8 6.4 16 6.4c3.2 0 9.6 0 12.8 0s9.6 3.2 12.8-9.6c6.4-12.8 16-41.6 19.2-44.8 0-3.2 3.2-6.4 0-9.6s-3.2-6.4-6.4-9.6c-3.2-3.2-6.4-6.4-9.6-9.6s-6.4-6.4-3.2-12.8c3.2-6.4 16-25.6 32-41.6 22.4-19.2 41.6-25.6 48-28.8s9.6-3.2 12.8 0c3.2 3.2 16 16 19.2 22.4s9.6 6.4 12.8 3.2c6.4-3.2 35.2-16 41.6-19.2s9.6-3.2 12.8-6.4c3.2-3.2 3.2-12.8 0-28.8zM512 960c-281.6 0-512-230.4-512-512s230.4-512 512-512c281.6 0 512 230.4 512 512s-230.4 512-512 512zM528 220.8c-41.6 0-83.2 9.6-118.4 28.8l-137.6-44.8 44.8 131.2c-22.4 35.2-35.2 80-35.2 124.8 0 134.4 108.8 243.2 246.4 243.2 134.4 0 246.4-108.8 246.4-243.2 0-131.2-112-240-246.4-240z" />
<glyph unicode="&#xe909;" glyph-name="youtube" d="M512-64c-281.6 0-512 230.4-512 512s230.4 512 512 512c281.6 0 512-230.4 512-512s-230.4-512-512-512zM339.2 252.8v179.2h-35.2v28.8h105.6v-28.8h-35.2v-179.2h-35.2zM473.6 406.4h28.8v-156.8h-28.8c0 3.2 0 6.4 0 9.6-6.4-3.2-12.8-6.4-22.4-9.6-25.6-9.6-35.2 6.4-35.2 25.6 0 38.4 0 80 0 118.4v12.8h28.8c0-12.8 0-25.6 0-35.2 0-28.8 0-57.6 0-86.4 0-6.4 0-16 9.6-16s19.2 9.6 19.2 16c0 19.2 0 35.2 0 54.4 0 22.4 0 44.8 0 67.2zM726.4 323.2h-57.6c0-12.8 0-25.6 0-35.2s6.4-12.8 12.8-12.8c9.6 0 12.8 6.4 12.8 12.8s0 9.6 0 16h28.8c6.4-22.4 0-41.6-19.2-51.2s-48-3.2-60.8 12.8c-3.2 6.4-6.4 16-9.6 22.4 0 25.6 0 51.2 0 76.8 0 41.6 38.4 54.4 67.2 41.6 12.8-3.2 19.2-12.8 19.2-25.6 6.4-19.2 6.4-38.4 6.4-57.6zM556.8 262.4c0-6.4 0-6.4 0-12.8h-32v208h32v-64c6.4 3.2 12.8 9.6 22.4 9.6 19.2 6.4 32-3.2 35.2-22.4 0-19.2 0-38.4 3.2-57.6 0-16 0-32 0-48-6.4-28.8-28.8-38.4-51.2-19.2-6.4 3.2-6.4 3.2-9.6 6.4zM515.2 185.6c60.8 3.2 121.6 3.2 182.4 6.4 32 0 57.6 25.6 64 57.6 3.2 19.2 3.2 41.6 6.4 60.8 3.2 44.8 0 89.6-6.4 134.4-3.2 32-28.8 60.8-64 60.8-38.4 3.2-76.8 3.2-115.2 3.2-86.4 0-172.8-3.2-259.2-3.2-28.8 0-57.6-25.6-60.8-54.4-6.4-41.6-12.8-86.4-6.4-128 3.2-22.4 3.2-44.8 6.4-67.2 3.2-35.2 28.8-64 67.2-64 64 0 124.8-3.2 185.6-6.4zM412.8 544c0 6.4 0 12.8 0 19.2-3.2 38.4 3.2 73.6 19.2 108.8 6.4 16 12.8 35.2 19.2 51.2-9.6 0-16 0-25.6 0-3.2 0-6.4-3.2-9.6-6.4-6.4-12.8-9.6-28.8-16-44.8-3.2-6.4-3.2-12.8-6.4-19.2-6.4 22.4-12.8 41.6-22.4 60.8 0 3.2-3.2 6.4-6.4 6.4-9.6 0-19.2 0-28.8 0 0-3.2 3.2-6.4 3.2-9.6 9.6-28.8 22.4-57.6 32-83.2 3.2-6.4 3.2-12.8 3.2-19.2 0-22.4 0-41.6 0-64h38.4zM624 672v-12.8c0-28.8 0-57.6 0-86.4 0-9.6-9.6-16-19.2-16s-9.6 9.6-9.6 16c0 25.6 0 51.2 0 76.8v22.4h-28.8v-12.8c0-32 0-67.2 0-99.2 0-22.4 12.8-32 35.2-25.6 6.4 3.2 16 6.4 22.4 12.8 0-3.2 0-6.4 0-9.6h25.6v134.4h-25.6zM515.2 611.2c0-9.6 0-19.2 0-32 0-9.6-6.4-16-12.8-16-9.6 0-12.8 6.4-16 16 0 19.2 0 41.6 0 60.8 0 9.6 6.4 16 16 16s12.8-6.4 12.8-16c0-6.4 0-16 0-28.8v0zM457.6 643.2c0-9.6 0-19.2 0-28.8 0 0 0-3.2 0-3.2 0-12.8 0-25.6 0-38.4 3.2-19.2 22.4-32 48-28.8 22.4 3.2 35.2 16 38.4 38.4 0 19.2 0 41.6 0 60.8 0 12.8-3.2 22.4-12.8 28.8-9.6 9.6-22.4 9.6-32 9.6-25.6 0-41.6-16-41.6-38.4zM588.8 326.4v0c0 12.8 0 22.4 0 35.2 0 6.4-3.2 9.6-6.4 16s-12.8 6.4-22.4 6.4c-6.4-3.2-12.8-6.4-12.8-12.8 0-28.8 0-54.4 0-83.2 0-6.4 6.4-9.6 12.8-12.8 16-3.2 25.6 3.2 25.6 16 6.4 12.8 3.2 25.6 3.2 35.2zM665.6 348.8h28.8c0 6.4 0 16 0 22.4s-3.2 12.8-12.8 12.8c-9.6 0-12.8-6.4-12.8-12.8-3.2-9.6-3.2-16-3.2-22.4z" />
<glyph unicode="&#xe90a;" glyph-name="youtube-outline" d="M976 448c0 256-208 464-464 467.2-256 0-464-208-464-467.2 0-256 208-464 464-467.2 256 0 464 208 464 467.2zM512-64c-281.6 0-512 230.4-512 512s230.4 512 512 512c281.6 0 512-230.4 512-512s-230.4-512-512-512zM339.2 252.8v179.2h-35.2v28.8h105.6v-28.8h-35.2v-179.2h-35.2zM473.6 406.4h28.8v-156.8h-28.8c0 3.2 0 6.4 0 9.6-6.4-3.2-12.8-6.4-22.4-9.6-25.6-9.6-35.2 6.4-35.2 25.6 0 38.4 0 80 0 118.4v12.8h28.8c0-12.8 0-25.6 0-35.2 0-28.8 0-57.6 0-86.4 0-6.4 0-16 9.6-16s19.2 9.6 19.2 16c0 19.2 0 35.2 0 54.4 0 22.4 0 44.8 0 67.2zM726.4 323.2h-57.6c0-12.8 0-25.6 0-35.2s6.4-12.8 12.8-12.8c9.6 0 12.8 6.4 12.8 12.8s0 9.6 0 16h28.8c6.4-22.4 0-41.6-19.2-51.2s-48-3.2-60.8 12.8c-3.2 6.4-6.4 16-9.6 22.4 0 25.6 0 51.2 0 76.8 0 41.6 38.4 54.4 67.2 41.6 12.8-3.2 19.2-12.8 19.2-25.6 6.4-19.2 6.4-38.4 6.4-57.6zM556.8 262.4c0-6.4 0-6.4 0-12.8h-32v208h32v-64c6.4 3.2 12.8 9.6 22.4 9.6 19.2 6.4 32-3.2 35.2-22.4 0-19.2 0-38.4 3.2-57.6 0-16 0-32 0-48-6.4-28.8-28.8-38.4-51.2-19.2-6.4 3.2-6.4 3.2-9.6 6.4zM515.2 185.6c60.8 3.2 121.6 3.2 182.4 6.4 32 0 57.6 25.6 64 57.6 3.2 19.2 3.2 41.6 6.4 60.8 3.2 44.8 0 89.6-6.4 134.4-3.2 32-28.8 60.8-64 60.8-38.4 3.2-76.8 3.2-115.2 3.2-86.4 0-172.8-3.2-259.2-3.2-28.8 0-57.6-25.6-60.8-54.4-6.4-41.6-12.8-86.4-6.4-128 3.2-22.4 3.2-44.8 6.4-67.2 3.2-35.2 28.8-64 67.2-64 64 0 124.8-3.2 185.6-6.4zM412.8 544c0 6.4 0 12.8 0 19.2-3.2 38.4 3.2 73.6 19.2 108.8 6.4 16 12.8 35.2 19.2 51.2-9.6 0-16 0-25.6 0-3.2 0-6.4-3.2-9.6-6.4-6.4-12.8-9.6-28.8-16-44.8-3.2-6.4-3.2-12.8-6.4-19.2-6.4 22.4-12.8 41.6-22.4 60.8 0 3.2-3.2 6.4-6.4 6.4-9.6 0-19.2 0-28.8 0 0-3.2 3.2-6.4 3.2-9.6 9.6-28.8 22.4-57.6 32-83.2 3.2-6.4 3.2-12.8 3.2-19.2 0-22.4 0-41.6 0-64h38.4zM624 672v-12.8c0-28.8 0-57.6 0-86.4 0-9.6-9.6-16-19.2-16s-9.6 9.6-9.6 16c0 25.6 0 51.2 0 76.8v22.4h-28.8v-12.8c0-32 0-67.2 0-99.2 0-22.4 12.8-32 35.2-25.6 6.4 3.2 16 6.4 22.4 12.8 0-3.2 0-6.4 0-9.6h25.6v134.4h-25.6zM515.2 611.2c0-9.6 0-19.2 0-32 0-9.6-6.4-16-12.8-16-9.6 0-12.8 6.4-16 16 0 19.2 0 41.6 0 60.8 0 9.6 6.4 16 16 16s12.8-6.4 12.8-16c0-6.4 0-16 0-28.8v0zM457.6 643.2c0-9.6 0-19.2 0-28.8 0 0 0-3.2 0-3.2 0-12.8 0-25.6 0-38.4 3.2-19.2 22.4-32 48-28.8 22.4 3.2 35.2 16 38.4 38.4 0 19.2 0 41.6 0 60.8 0 12.8-3.2 22.4-12.8 28.8-9.6 9.6-22.4 9.6-32 9.6-25.6 0-41.6-16-41.6-38.4zM588.8 326.4v0c0 12.8 0 22.4 0 35.2 0 6.4-3.2 9.6-6.4 16s-12.8 6.4-22.4 6.4c-6.4-3.2-12.8-6.4-12.8-12.8 0-28.8 0-54.4 0-83.2 0-6.4 6.4-9.6 12.8-12.8 16-3.2 25.6 3.2 25.6 16 6.4 12.8 3.2 25.6 3.2 35.2zM665.6 348.8h28.8c0 6.4 0 16 0 22.4s-3.2 12.8-12.8 12.8c-9.6 0-12.8-6.4-12.8-12.8-3.2-9.6-3.2-16-3.2-22.4z" />
<glyph unicode="&#xe90b;" glyph-name="instagram" d="M512-64c-281.6 0-512 230.4-512 512s230.4 512 512 512c281.6 0 512-230.4 512-512s-230.4-512-512-512zM624 688h-204.8c-70.4 0-124.8-57.6-124.8-124.8v-204.8c0-70.4 57.6-124.8 124.8-124.8h204.8c70.4 0 124.8 57.6 124.8 124.8v204.8c3.2 67.2-54.4 124.8-124.8 124.8zM710.4 358.4c0-48-38.4-86.4-86.4-86.4h-204.8c-48 0-86.4 38.4-86.4 86.4v204.8c0 48 38.4 86.4 86.4 86.4h204.8c48 0 86.4-38.4 86.4-86.4v-204.8zM518.4 579.2c-64 0-115.2-51.2-115.2-115.2s51.2-115.2 115.2-115.2 115.2 51.2 115.2 115.2c-3.2 64-54.4 115.2-115.2 115.2zM518.4 390.4c-41.6 0-73.6 32-73.6 73.6s32 73.6 73.6 73.6 73.6-32 73.6-73.6c0-41.6-32-73.6-73.6-73.6zM649.6 611.2c-6.4 0-12.8-3.2-19.2-6.4-6.4-6.4-6.4-12.8-6.4-19.2s3.2-12.8 6.4-19.2c6.4-6.4 12.8-6.4 19.2-6.4s12.8 3.2 19.2 6.4c6.4 6.4 6.4 12.8 6.4 19.2s-3.2 12.8-6.4 19.2c-6.4 3.2-12.8 6.4-19.2 6.4z" />
<glyph unicode="&#xe90c;" glyph-name="instagram-outline" d="M976 448c0 256-208 464-464 467.2-256 0-464-208-464-467.2 0-256 208-464 464-467.2 256 0 464 208 464 467.2zM512-64c-281.6 0-512 230.4-512 512s230.4 512 512 512c281.6 0 512-230.4 512-512s-230.4-512-512-512zM624 688h-204.8c-70.4 0-124.8-57.6-124.8-124.8v-204.8c0-70.4 57.6-124.8 124.8-124.8h204.8c70.4 0 124.8 57.6 124.8 124.8v204.8c3.2 67.2-54.4 124.8-124.8 124.8zM710.4 358.4c0-48-38.4-86.4-86.4-86.4h-204.8c-48 0-86.4 38.4-86.4 86.4v204.8c0 48 38.4 86.4 86.4 86.4h204.8c48 0 86.4-38.4 86.4-86.4v-204.8zM518.4 579.2c-64 0-115.2-51.2-115.2-115.2s51.2-115.2 115.2-115.2 115.2 51.2 115.2 115.2c-3.2 64-54.4 115.2-115.2 115.2zM518.4 390.4c-41.6 0-73.6 32-73.6 73.6s32 73.6 73.6 73.6 73.6-32 73.6-73.6c0-41.6-32-73.6-73.6-73.6zM649.6 611.2c-6.4 0-12.8-3.2-19.2-6.4-6.4-6.4-6.4-12.8-6.4-19.2s3.2-12.8 6.4-19.2c6.4-6.4 12.8-6.4 19.2-6.4s12.8 3.2 19.2 6.4c6.4 6.4 6.4 12.8 6.4 19.2s-3.2 12.8-6.4 19.2c-6.4 3.2-12.8 6.4-19.2 6.4z" />
<glyph unicode="&#xe90d;" glyph-name="linkedin" d="M512-64c-281.6 0-512 230.4-512 512s230.4 512 512 512c281.6 0 512-230.4 512-512s-230.4-512-512-512zM723.2 307.2c0 3.2 0 3.2 0 6.4 0 41.6 0 86.4 0 128 0 16-3.2 28.8-6.4 44.8-6.4 32-22.4 57.6-57.6 64s-70.4 3.2-92.8-32v35.2h-86.4v-246.4h89.6v9.6c0 38.4 0 76.8 0 118.4 0 12.8 3.2 22.4 9.6 35.2s22.4 19.2 35.2 16c12.8-3.2 19.2-12.8 22.4-25.6 0-6.4 0-16 0-22.4 0-38.4 0-80 0-118.4v-9.6h86.4zM342.4 307.2h89.6v246.4h-89.6v-246.4zM387.2 665.6c-25.6 0-44.8-19.2-44.8-44.8s19.2-44.8 44.8-44.8c25.6 0 44.8 19.2 44.8 44.8 0 22.4-22.4 41.6-44.8 44.8z" />
<glyph unicode="&#xe90e;" glyph-name="linkedin-outline" d="M976 448c0 256-208 464-464 467.2-256 0-464-208-464-467.2 0-256 208-464 464-467.2 256 0 464 208 464 467.2zM512-64c-281.6 0-512 230.4-512 512s230.4 512 512 512c281.6 0 512-230.4 512-512s-230.4-512-512-512zM723.2 307.2c0 3.2 0 3.2 0 6.4 0 41.6 0 86.4 0 128 0 16-3.2 28.8-6.4 44.8-6.4 32-22.4 57.6-57.6 64s-70.4 3.2-92.8-32v35.2h-86.4v-246.4h89.6v9.6c0 38.4 0 76.8 0 118.4 0 12.8 3.2 22.4 9.6 35.2s22.4 19.2 35.2 16c12.8-3.2 19.2-12.8 22.4-25.6 0-6.4 0-16 0-22.4 0-38.4 0-80 0-118.4v-9.6h86.4zM342.4 307.2h89.6v246.4h-89.6v-246.4zM387.2 665.6c-25.6 0-44.8-19.2-44.8-44.8s19.2-44.8 44.8-44.8c25.6 0 44.8 19.2 44.8 44.8 0 22.4-22.4 41.6-44.8 44.8z" />
<glyph unicode="&#xe90f;" glyph-name="xing" d="M512-64c-281.6 0-512 230.4-512 512s230.4 512 512 512c281.6 0 512-230.4 512-512s-230.4-512-512-512zM451.2 585.6c-3.2 6.4-9.6 12.8-19.2 12.8h-73.6c-3.2 0-9.6 0-9.6-3.2-3.2-3.2-3.2-6.4 0-9.6l48-86.4c0 0 0 0 0 0l-76.8-137.6c-3.2-3.2-3.2-9.6 0-9.6 3.2-3.2 6.4-6.4 9.6-6.4h73.6c9.6 0 16 6.4 19.2 12.8 0 0 76.8 134.4 80 137.6 0 3.2-51.2 89.6-51.2 89.6zM726.4 630.4c3.2 3.2 3.2 6.4 0 9.6 0 3.2-3.2 3.2-6.4 3.2h-57.6c-9.6 0-12.8-6.4-16-9.6 0 0-124.8-217.6-128-224 0 0 83.2-147.2 83.2-147.2 3.2-6.4 6.4-9.6 16-9.6h54.4c3.2 0 6.4 0 6.4 3.2s0 6.4 0 9.6l-83.2 147.2c0 0 0 0 0 0l131.2 217.6z" />
<glyph unicode="&#xe910;" glyph-name="xing-outline" d="M976 448c0 256-208 464-464 467.2-256 0-464-208-464-467.2 0-256 208-464 464-467.2 256 0 464 208 464 467.2zM512-64c-281.6 0-512 230.4-512 512s230.4 512 512 512c281.6 0 512-230.4 512-512s-230.4-512-512-512zM451.2 585.6c0 0 51.2-86.4 51.2-89.6-3.2-3.2-80-137.6-80-137.6-3.2-6.4-9.6-12.8-19.2-12.8h-73.6c-3.2 0-6.4 3.2-9.6 6.4-3.2 0-3.2 6.4 0 9.6l76.8 137.6c0 0 0 0 0 0l-48 86.4c-3.2 3.2-3.2 6.4 0 9.6 0 3.2 6.4 3.2 9.6 3.2h73.6c9.6 0 16-6.4 19.2-12.8zM726.4 630.4l-131.2-217.6c0 0 0 0 0 0l83.2-147.2c0-3.2 0-6.4 0-9.6s-3.2-3.2-6.4-3.2h-54.4c-9.6 0-12.8 3.2-16 9.6 0 0-83.2 147.2-83.2 147.2 3.2 6.4 128 224 128 224 3.2 3.2 6.4 9.6 16 9.6h57.6c3.2 0 6.4 0 6.4-3.2 3.2-3.2 3.2-6.4 0-9.6z" />
<glyph unicode="&#xe911;" glyph-name="twitter" d="M512 960c-282.77 0-512-229.23-512-512s229.23-512 512-512 512 229.23 512 512-229.23 512-512 512zM595.39 251.1l-105.29 137.67-120.49-137.67h-66.85l156.1 178.42-164.7 215.38h137.85l95.18-125.83 110.090 125.83h66.8l-145.94-166.81 171.7-226.99h-134.45zM372.18 607.010l241.65-315.92h37.020l-238.95 315.92z" />
<glyph unicode="&#xe912;" glyph-name="twitter-outline" d="M512 960c-281.6 0-512-230.4-512-512s230.4-512 512-512 512 230.4 512 512-230.4 512-512 512zM512-16c-256 0-467.2 208-464 464 0 256 208 467.2 464 464 256 0 467.2-208 467.2-464-3.2-256-211.2-464-467.2-464zM697.64 651.88h-65.34l-107.69-127.46-93.1 127.46h-134.83l161.11-218.16-152.69-180.73h65.38l117.85 139.45 102.99-139.45h131.5l-167.94 229.92 142.76 168.97zM645.57 293.5h-36.21l-236.37 320h38.85l233.73-320z" />
<glyph unicode="&#xe913;" glyph-name="facebook" d="M0 448c0 281.6 230.4 512 512 512s512-230.4 512-512c0-281.6-230.4-512-512-512s-512 230.4-512 512zM624 662.4c-22.4 0-44.8 0-70.4 0-12.8 0-25.6-3.2-38.4-6.4-32-9.6-51.2-35.2-54.4-73.6 0-19.2 0-38.4 0-60.8h-44.8v-70.4h44.8v-208h92.8v208h60.8c3.2 22.4 6.4 44.8 6.4 70.4h-70.4v22.4c0 48 0 48 48 48h22.4v70.4z" />
<glyph unicode="&#xe914;" glyph-name="facebook-outline" d="M512 912c-256 3.2-464-208-464-464-3.2-256 208-464 464-464s464 208 467.2 464c0 256-211.2 464-467.2 464zM0 448c0 281.6 230.4 512 512 512s512-230.4 512-512c0-281.6-230.4-512-512-512s-512 230.4-512 512zM624 662.4c-22.4 0-44.8 0-70.4 0-12.8 0-25.6-3.2-38.4-6.4-32-9.6-51.2-35.2-54.4-73.6 0-19.2 0-38.4 0-60.8h-44.8v-70.4h44.8v-208h92.8v208h60.8c3.2 22.4 6.4 44.8 6.4 70.4h-70.4v22.4c0 48 0 48 48 48h22.4v70.4z" />
<glyph unicode="&#xe915;" glyph-name="navigation" d="M0 150.4h1024v67.2h-1024v-67.2zM0 441.6h1024v67.2h-1024v-67.2zM0 800v-67.2h1024v67.2h-1024z" />
<glyph unicode="&#xe916;" glyph-name="location" d="M768 854.4c-67.2 67.2-156.8 105.6-249.6 105.6-96 0-185.6-38.4-252.8-105.6-124.8-124.8-140.8-358.4-35.2-502.4l288-416 284.8 416c105.6 144 89.6 377.6-35.2 502.4zM768 374.4l-252.8-364.8-249.6 368c-96 128-80 336 28.8 448 60.8 60.8 137.6 92.8 224 92.8 83.2 0 163.2-32 224-92.8 108.8-112 121.6-320 25.6-451.2zM518.4 745.6c-80 0-144-64-144-144s64-144 144-144c80 0 144 64 144 144s-67.2 144-144 144zM518.4 499.2c-57.6 0-102.4 44.8-102.4 102.4 0 54.4 44.8 102.4 102.4 102.4s102.4-44.8 102.4-102.4c-3.2-57.6-48-102.4-102.4-102.4z" />
<glyph unicode="&#xe917;" glyph-name="phone-book" d="M560 534.4c70.4 0 128 57.6 128 128s-57.6 128-128 128c-70.4 0-128-57.6-128-128 0-35.2 12.8-67.2 38.4-89.6 22.4-25.6 54.4-38.4 89.6-38.4zM489.6 729.6c38.4 38.4 99.2 38.4 137.6 0s38.4-99.2 0-137.6-99.2-38.4-137.6 0c-19.2 19.2-28.8 41.6-28.8 70.4 3.2 25.6 12.8 51.2 28.8 67.2zM636.8 448h-153.6c-99.2 0-179.2-70.4-179.2-153.6v-89.6c0-6.4 6.4-12.8 16-12.8h480c9.6 0 16 6.4 16 12.8v89.6c0 83.2-80 153.6-179.2 153.6zM784 220.8h-448v73.6c0 70.4 67.2 124.8 147.2 124.8h153.6c80 0 147.2-57.6 147.2-124.8v-73.6zM966.4 940.8c-12.8 12.8-28.8 19.2-48 19.2h-716.8c-38.4 0-67.2-32-67.2-67.2v-86.4h-28.8c-32 0-57.6-25.6-57.6-57.6v-3.2c0-32 25.6-57.6 57.6-57.6h25.6v-176h-25.6c-32 0-57.6-25.6-57.6-57.6v-3.2c0-32 25.6-57.6 57.6-57.6h25.6v-176h-25.6c-32 0-57.6-25.6-57.6-57.6v-3.2c0-32 25.6-57.6 57.6-57.6h25.6v-86.4c0-19.2 6.4-35.2 19.2-48 16-22.4 32-28.8 51.2-28.8h716.8c38.4 0 70.4 32 70.4 67.2v889.6c-3.2 16-9.6 35.2-22.4 48zM105.6 713.6c-16 0-25.6 12.8-25.6 25.6v6.4c0 16 12.8 25.6 25.6 25.6 0 0 0 0 0 0h83.2c16 0 25.6-12.8 25.6-25.6v-3.2c0-16-12.8-25.6-25.6-25.6l-83.2-3.2zM105.6 419.2c-16 0-25.6 12.8-25.6 25.6v3.2c0 16 12.8 25.6 25.6 25.6 0 0 0 0 0 0h83.2c16 0 25.6-12.8 25.6-25.6v-3.2c0-16-12.8-25.6-25.6-25.6h-83.2zM105.6 121.6c-16 0-25.6 12.8-25.6 25.6v3.2c0 16 12.8 25.6 25.6 25.6 0 0 0 0 0 0h83.2c16 0 25.6-12.8 25.6-25.6v-3.2c0-16-12.8-25.6-25.6-25.6h-83.2zM953.6 3.2c0-19.2-16-38.4-38.4-38.4h-713.6c-9.6 0-19.2 3.2-25.6 9.6s-9.6 16-9.6 25.6v86.4h25.6c32 0 57.6 25.6 57.6 57.6v3.2c0 32-25.6 57.6-57.6 57.6h-25.6v176h25.6c32 0 57.6 25.6 57.6 57.6v9.6c0 32-25.6 57.6-57.6 57.6h-25.6v176h25.6c32 0 57.6 25.6 57.6 57.6v6.4c0 32-25.6 57.6-57.6 57.6h-25.6v89.6c0 19.2 16 35.2 35.2 35.2h716.8c19.2 0 38.4-16 38.4-38.4l-3.2-886.4z" />
<glyph unicode="&#xe918;" glyph-name="information" d="M611.2 236.8v80h-32v211.2h-144v-80h32v-134.4h-32v-80h176v3.2zM515.2 592c32 0 60.8 25.6 60.8 57.6s-25.6 57.6-60.8 57.6c-32 0-60.8-25.6-60.8-57.6s28.8-57.6 60.8-57.6zM512-64c-281.6 0-512 230.4-512 512s230.4 512 512 512 512-230.4 512-512-230.4-512-512-512zM976 448c0 256-208 464-464 467.2-256 0-464-208-464-467.2 0-256 208-464 464-467.2 256 0 464 208 464 467.2z" />
<glyph unicode="&#xe919;" glyph-name="checkbox" d="M908.8-64h-793.6c-64 0-115.2 51.2-115.2 115.2v793.6c0 64 51.2 115.2 115.2 115.2h790.4c64 0 115.2-51.2 115.2-115.2v-790.4c3.2-67.2-48-118.4-112-118.4zM115.2 912c-38.4 0-70.4-32-70.4-70.4v-790.4c0-38.4 32-70.4 70.4-70.4h790.4c38.4 0 70.4 32 70.4 70.4v793.6c0 38.4-32 70.4-70.4 70.4h-790.4z" />
<glyph unicode="&#xe91a;" glyph-name="filter-kachel" d="M1024-64h-470.4v470.4h470.4v-470.4zM595.2-22.4h390.4v387.2h-390.4v-387.2zM470.4-64h-470.4v470.4h470.4v-470.4zM41.6-22.4h390.4v387.2h-390.4v-387.2zM1024 489.6h-470.4v470.4h470.4v-470.4zM595.2 531.2h390.4v387.2h-390.4v-387.2zM470.4 489.6h-470.4v470.4h470.4v-470.4zM41.6 531.2h390.4v387.2h-390.4v-387.2z" />
<glyph unicode="&#xe91b;" glyph-name="filter" d="M540.8 460.8v470.4c0 16-12.8 28.8-28.8 28.8s-28.8-12.8-28.8-28.8v-470.4c-67.2-12.8-118.4-73.6-118.4-144s51.2-131.2 118.4-144v-208c0-16 12.8-28.8 28.8-28.8s28.8 12.8 28.8 28.8v208c67.2 12.8 118.4 73.6 118.4 144s-51.2 131.2-118.4 144zM512 230.4c-48 0-89.6 38.4-89.6 89.6 0 48 38.4 89.6 89.6 89.6s89.6-38.4 89.6-89.6c0-51.2-41.6-89.6-89.6-89.6zM198.4 700.8v230.4c0 16-12.8 28.8-28.8 28.8s-28.8-12.8-28.8-28.8v-230.4c-67.2-12.8-118.4-73.6-118.4-144s51.2-131.2 118.4-144v-451.2c0-16 12.8-28.8 28.8-28.8s28.8 12.8 28.8 28.8v454.4c67.2 12.8 118.4 73.6 118.4 144s-51.2 128-118.4 140.8zM169.6 470.4c-48 0-89.6 38.4-89.6 89.6s38.4 89.6 89.6 89.6 89.6-38.4 89.6-89.6-41.6-89.6-89.6-89.6zM883.2 700.8v230.4c0 16-12.8 28.8-28.8 28.8s-28.8-12.8-28.8-28.8v-230.4c-67.2-12.8-118.4-73.6-118.4-144s51.2-131.2 118.4-144v-451.2c0-16 12.8-28.8 28.8-28.8s28.8 12.8 28.8 28.8v454.4c67.2 12.8 118.4 73.6 118.4 144s-51.2 128-118.4 140.8zM854.4 470.4c-48 0-89.6 38.4-89.6 89.6s38.4 89.6 89.6 89.6 89.6-38.4 89.6-89.6-41.6-89.6-89.6-89.6z" />
<glyph unicode="&#xe91c;" glyph-name="filter-liste" d="M105.931 677.517c58.493 0 105.931 47.594 105.931 105.831s-47.438 106.031-105.931 106.031c-58.493 0-105.931-47.594-105.931-105.831s47.639-106.031 105.931-106.031zM105.931 359.724c58.493 0 105.931 47.639 105.931 105.931s-47.438 105.931-105.931 105.931c-58.493 0-105.931-47.438-105.931-105.931s47.639-105.931 105.931-105.931zM105.931 6.621c58.493 0 105.931 47.639 105.931 105.931 0 58.493-47.639 105.931-105.931 105.931s-105.931-47.639-105.931-105.931c0-58.292 47.639-105.931 105.931-105.931zM344.43 748.138h652.933c14.726 0 26.637 15.789 26.637 35.31s-11.911 35.31-26.637 35.31h-652.933c-14.726 0-26.637-15.789-26.637-35.31s11.911-35.31 26.637-35.31zM344.43 430.345h652.933c14.726 0 26.637 15.789 26.637 35.31s-11.911 35.31-26.637 35.31h-652.933c-14.726 0-26.637-15.789-26.637-35.31s11.911-35.31 26.637-35.31zM344.43 77.241h652.933c14.726 0 26.637 15.789 26.637 35.31s-11.911 35.31-26.637 35.31h-652.933c-14.726 0-26.637-15.789-26.637-35.31s11.911-35.31 26.637-35.31z" />
<glyph unicode="&#xe91d;" glyph-name="delete" d="M838.4 838.4h-140.8v89.6c0 19.2-16 32-32 32-3.2 0-3.2 0-3.2 0s-3.2 0-3.2 0h-336c-19.2 0-32-12.8-32-32v-89.6h-140.8c-41.6 0-70.4-32-70.4-70.4v-115.2h60.8v-649.6c0-38.4 32-70.4 70.4-70.4h563.2c41.6 0 70.4 28.8 70.4 70.4v652.8h60.8v115.2c3.2 38.4-28.8 67.2-67.2 67.2zM358.4 896h275.2v-57.6h-275.2v57.6zM780.8 6.4c0-3.2-3.2-6.4-6.4-6.4h-560c-3.2 0-6.4 3.2-6.4 6.4v649.6h576v-649.6zM844.8 720h-700.8v51.2c0 3.2 3.2 6.4 6.4 6.4h684.8c3.2 0 6.4-3.2 6.4-6.4v-51.2zM617.6 569.6h48v-537.6h-48v537.6zM470.4 569.6h48v-537.6h-48v537.6zM323.2 569.6h48v-537.6h-48v537.6z" />
<glyph unicode="&#xe91e;" glyph-name="filter-liste-inaktiv" d="M105.6 896c-57.6 0-105.6-48-105.6-105.6s48-105.6 105.6-105.6c57.6 0 105.6 48 105.6 105.6s-48 105.6-105.6 105.6zM105.6 732.8c-32 0-57.6 25.6-57.6 57.6s25.6 57.6 57.6 57.6c32 0 57.6-25.6 57.6-57.6s-25.6-57.6-57.6-57.6zM105.6 579.2c-57.6 0-105.6-48-105.6-105.6s48-105.6 105.6-105.6c57.6 0 105.6 48 105.6 105.6s-48 105.6-105.6 105.6zM105.6 416c-32 0-57.6 25.6-57.6 57.6s25.6 57.6 57.6 57.6c32 0 57.6-25.6 57.6-57.6s-25.6-57.6-57.6-57.6zM105.6 224c-57.6 0-105.6-48-105.6-105.6s48-105.6 105.6-105.6c57.6 0 105.6 48 105.6 105.6 0 60.8-48 105.6-105.6 105.6zM105.6 64c-32 0-57.6 25.6-57.6 57.6s25.6 57.6 57.6 57.6c32 0 57.6-25.6 57.6-57.6s-25.6-57.6-57.6-57.6zM345.6 755.2h652.8c16 0 25.6 6.4 25.6 19.2 0 9.6-12.8 19.2-25.6 19.2h-652.8c-16 0-25.6-6.4-25.6-19.2-3.2-12.8 9.6-19.2 25.6-19.2zM998.4 473.6h-652.8c-16 0-25.6-6.4-25.6-19.2s12.8-19.2 25.6-19.2h652.8c16 0 25.6 6.4 25.6 19.2s-12.8 19.2-25.6 19.2zM998.4 153.6h-652.8c-16 0-25.6-6.4-25.6-19.2 0-9.6 12.8-19.2 25.6-19.2h652.8c16 0 25.6 6.4 25.6 19.2s-12.8 19.2-25.6 19.2z" />
<glyph unicode="&#xe91f;" glyph-name="cheackbox-aktiv" d="M908.8 960h-793.6c-64 0-115.2-51.2-115.2-115.2v-790.4c0-64 51.2-115.2 115.2-115.2h790.4c64 0 115.2 51.2 115.2 115.2v790.4c3.2 64-48 115.2-112 115.2zM976 51.2c0-38.4-32-70.4-70.4-70.4h-790.4c-38.4 0-70.4 32-70.4 70.4v793.6c0 38.4 32 70.4 70.4 70.4h790.4c38.4 0 70.4-32 70.4-70.4v-793.6zM435.2 361.6c-3.2-3.2-9.6-3.2-16 0l-118.4 128-3.2 3.2c-9.6 9.6-22.4 9.6-28.8 0l-28.8-28.8c-3.2-3.2-6.4-9.6-6.4-16 0-3.2 3.2-9.6 6.4-16l3.2-6.4 166.4-179.2c3.2-3.2 9.6-6.4 16-6.4s9.6 3.2 16 6.4l342.4 355.2c9.6 9.6 9.6 22.4 0 28.8l-28.8 28.8c-9.6 9.6-22.4 9.6-28.8 0z" />
<glyph unicode="&#xe920;" glyph-name="filter-kachel-aktiv" d="M0 512h448v448h-448v-448zM576 960v-448h448v448h-448zM576-64h448v448h-448v-448zM0-64h448v448h-448v-448z" />
<glyph unicode="&#xe921;" glyph-name="event" d="M889.6 259.2c6.4 6.4 16 9.6 25.6 3.2 6.4-6.4 9.6-16 3.2-25.6l-108.8-153.6c-3.2-3.2-6.4-6.4-12.8-6.4 0 0 0 0-3.2 0s-6.4 0-9.6 3.2l-83.2 67.2c-6.4 6.4-9.6 16-3.2 25.6 6.4 6.4 16 9.6 25.6 3.2l67.2-57.6 99.2 140.8zM902.4 361.6c73.6-38.4 121.6-112 121.6-198.4 0-124.8-102.4-227.2-227.2-227.2-44.8 0-86.4 12.8-118.4 35.2h-662.4c-9.6 0-16 6.4-16 16v886.4c0 9.6 6.4 16 16 16h86.4v54.4c3.2 9.6 9.6 16 19.2 16h121.6c9.6 0 16-6.4 16-16v-51.2h380.8v51.2c0 9.6 6.4 16 16 16h121.6c9.6 0 16-6.4 16-16v-51.2h86.4c9.6 0 16-6.4 16-16v-515.2zM678.4 924.8v-102.4h86.4v102.4h-86.4zM137.6 924.8v-102.4h86.4v102.4h-86.4zM35.2 854.4v-137.6h832v137.6h-70.4v-51.2c0-9.6-6.4-16-16-16h-121.6c-9.6 0-16 6.4-16 16v51.2h-384v-51.2c0-9.6-6.4-16-16-16h-121.6c-9.6 0-16 6.4-16 16v51.2h-70.4zM35.2 6.4v0h601.6c-3.2 3.2-6.4 6.4-9.6 9.6 0 0-3.2 3.2-3.2 3.2-3.2 3.2-6.4 9.6-9.6 12.8 0 0-3.2 3.2-3.2 3.2-3.2 3.2-6.4 9.6-9.6 12.8 0 3.2-3.2 3.2-3.2 6.4-3.2 3.2-3.2 9.6-6.4 12.8 0 3.2-3.2 3.2-3.2 6.4-3.2 3.2-3.2 9.6-3.2 12.8 0 0 0 3.2-3.2 3.2h-460.8v505.6h662.4v-211.2c6.4 0 12.8 0 16 0 6.4 0 12.8 0 19.2 0 3.2 0 3.2 0 6.4 0s9.6 0 12.8-3.2c3.2 0 6.4 0 9.6-3.2 3.2 0 6.4-3.2 9.6-3.2s6.4-3.2 9.6-3.2v310.4h-832v-675.2zM700.8 364.8c16 6.4 28.8 12.8 44.8 16 0 0 0 0 0 0v22.4h-121.6v-99.2c0 0 3.2 3.2 3.2 3.2 3.2 3.2 6.4 6.4 9.6 9.6s3.2 3.2 6.4 6.4 6.4 6.4 9.6 9.6c3.2 3.2 3.2 3.2 6.4 6.4s6.4 3.2 9.6 6.4c3.2 3.2 6.4 3.2 9.6 6.4s6.4 3.2 9.6 6.4c3.2 3.2 6.4 3.2 9.6 6.4-3.2-3.2 0 0 3.2 0zM582.4 227.2c3.2 6.4 3.2 12.8 6.4 19.2 0 0 0 0 0 0v0h-121.6v-118.4h108.8c0 0 0 3.2 0 3.2v0c0 3.2 0 6.4 0 9.6 0 0 0 3.2 0 3.2 0 6.4 0 12.8 0 19.2s0 16 0 22.4c0 3.2 0 6.4 0 9.6s0 9.6 3.2 12.8c0 6.4 3.2 9.6 3.2 16 0 0 0 3.2 0 3.2zM156.8 249.6v-121.6h121.6v121.6h-121.6zM156.8 403.2v-121.6h121.6v121.6h-121.6zM745.6 438.4v121.6h-121.6v-121.6h121.6zM588.8 438.4v121.6h-121.6v-121.6h121.6zM588.8 281.6v121.6h-121.6v-121.6h121.6zM313.6 403.2v-121.6h121.6v121.6h-121.6zM435.2 438.4v121.6h-121.6v-121.6h121.6zM278.4 438.4v121.6h-121.6v-121.6h121.6zM313.6 249.6v-121.6h121.6v121.6h-121.6zM796.8-28.8c105.6 0 192 86.4 192 192 0 76.8-44.8 144-112 172.8-6.4 3.2-12.8 6.4-19.2 6.4 0 0 0 0 0 0-6.4 3.2-12.8 3.2-19.2 6.4 0 0 0 0-3.2 0-6.4 0-12.8 3.2-16 3.2 0 0-3.2 0-3.2 0-6.4 0-12.8 0-19.2 0-9.6 0-22.4 0-32-3.2v0c-28.8-3.2-54.4-16-76.8-32 0 0 0 0-3.2-3.2s-9.6-6.4-12.8-9.6c0 0-3.2-3.2-3.2-3.2-3.2-3.2-6.4-6.4-9.6-9.6 0 0-3.2-3.2-3.2-3.2-3.2-3.2-6.4-6.4-9.6-12.8 0 0-3.2-3.2-3.2-3.2-3.2-3.2-6.4-9.6-9.6-16 0 0 0-3.2-3.2-3.2l-3.2-3.2c-3.2-3.2-6.4-9.6-6.4-16-3.2-6.4-3.2-9.6-6.4-16 0 0 0 0 0-3.2-3.2-6.4-3.2-12.8-3.2-16 0 0 0 0 0-3.2 0-6.4-3.2-12.8-3.2-19.2 0 0 0 0 0 0 0-6.4 0-12.8 0-19.2s0-16 0-22.4c0 0 0 0 0-3.2 0-6.4 3.2-16 3.2-22.4 0 0 0-3.2 0-3.2 0-3.2 3.2-9.6 3.2-12.8s3.2-3.2 3.2-6.4c3.2-6.4 3.2-9.6 6.4-16 0 0 0-3.2 3.2-3.2 3.2-6.4 6.4-12.8 9.6-16 0-3.2 3.2-3.2 6.4-6.4s6.4-6.4 9.6-9.6c3.2-3.2 3.2-3.2 6.4-6.4s6.4-6.4 9.6-9.6c3.2-3.2 3.2-3.2 6.4-6.4 6.4-3.2 9.6-9.6 16-12.8 32-16 67.2-28.8 105.6-28.8z" />
<glyph unicode="&#xe922;" glyph-name="video" d="M710.4 470.4c3.2-3.2 6.4-6.4 6.4-9.6s-3.2-9.6-6.4-9.6l-281.6-192c-3.2 0-3.2-3.2-6.4-3.2s-3.2 0-6.4 0c-3.2 3.2-6.4 6.4-6.4 12.8v384c0 3.2 3.2 9.6 6.4 12.8s9.6 3.2 12.8 0l281.6-195.2zM435.2 291.2l246.4 166.4-246.4 166.4v-332.8zM512 960c281.6 0 512-230.4 512-512s-230.4-512-512-512-512 230.4-512 512 230.4 512 512 512zM512-19.2c256 0 467.2 208 467.2 467.2s-211.2 467.2-467.2 467.2-467.2-211.2-467.2-467.2 211.2-467.2 467.2-467.2z" />
<glyph unicode="&#xe923;" glyph-name="phone" d="M819.2 329.6c-22.4 22.4-48 35.2-73.6 35.2s-51.2-12.8-73.6-32l-70.4-67.2c-6.4 3.2-12.8 6.4-16 9.6-6.4 3.2-16 6.4-22.4 12.8-64 41.6-124.8 92.8-179.2 163.2-28.8 35.2-44.8 64-57.6 92.8 19.2 16 35.2 32 51.2 51.2 6.4 6.4 12.8 12.8 19.2 19.2 44.8 44.8 44.8 105.6 0 150.4l-60.8 60.8c-9.6-3.2-16 3.2-22.4 9.6-16 16-28.8 28.8-41.6 41.6-22.4 22.4-48 32-73.6 32s-51.2-9.6-73.6-32c0 0 0 0 0 0l-76.8-76.8c-28.8-25.6-44.8-60.8-48-99.2-6.4-64 12.8-121.6 28.8-163.2 35.2-96 89.6-182.4 166.4-278.4 96-115.2 211.2-204.8 342.4-268.8 51.2-22.4 118.4-51.2 192-57.6 3.2 0 9.6 0 12.8 0 51.2 0 92.8 19.2 124.8 54.4 0 0 0 0 0 0 12.8 12.8 25.6 25.6 38.4 38.4 9.6 9.6 19.2 19.2 28.8 28.8 22.4 22.4 32 48 32 76.8 0 25.6-12.8 54.4-35.2 73.6l-112 124.8zM896 99.2c0 0 0 0 0 0-9.6-9.6-16-16-25.6-25.6-12.8-12.8-28.8-28.8-41.6-44.8-22.4-22.4-48-35.2-83.2-35.2-3.2 0-6.4 0-9.6 0-64 3.2-124.8 28.8-169.6 51.2-124.8 60.8-233.6 144-323.2 252.8-73.6 89.6-124.8 172.8-156.8 262.4-19.2 54.4-28.8 96-25.6 137.6 3.2 25.6 12.8 48 28.8 64l73.6 73.6c9.6 9.6 22.4 16 32 16 12.8 0 25.6-9.6 32-16 0 0 0 0 0 0 16-12.8 28.8-25.6 41.6-41.6 6.4-6.4 12.8-12.8 19.2-22.4l64-57.6c22.4-22.4 22.4-44.8 0-67.2-6.4-6.4-12.8-12.8-19.2-19.2-19.2-19.2-38.4-35.2-54.4-51.2 0 0 0 0 0 0-19.2-19.2-16-38.4-12.8-48 0 0 0 0 0-3.2 16-38.4 38.4-73.6 70.4-115.2v0c60.8-73.6 124.8-131.2 195.2-176 9.6-6.4 19.2-9.6 25.6-16 6.4-3.2 16-6.4 22.4-12.8 0 0 3.2 0 3.2 0 6.4-3.2 16-6.4 22.4-6.4 19.2 0 28.8 12.8 32 16l73.6 73.6c6.4 6.4 19.2 16 32 16s25.6-9.6 32-16c0 0 0 0 0 0l121.6-121.6c22.4-22.4 22.4-44.8 0-67.2zM534.4 697.6c57.6-9.6 108.8-35.2 147.2-76.8s67.2-92.8 76.8-147.2c3.2-12.8 16-25.6 28.8-25.6 3.2 0 3.2 0 6.4 0 16 3.2 25.6 19.2 22.4 32-12.8 67.2-44.8 131.2-92.8 179.2s-112 80-179.2 92.8c-16 3.2-32-6.4-32-22.4-3.2-12.8 6.4-28.8 22.4-32zM1024 531.2c-19.2 105.6-67.2 204.8-147.2 281.6-76.8 76.8-172.8 128-281.6 147.2-16 3.2-28.8-6.4-32-22.4s6.4-28.8 22.4-32c96-16 182.4-60.8 252.8-131.2s115.2-156.8 131.2-252.8c3.2-12.8 12.8-22.4 28.8-22.4 3.2 0 3.2 0 3.2 0 12.8 3.2 25.6 16 22.4 32z" />
<glyph unicode="&#xe924;" glyph-name="fax" d="M268.8 572.8h268.8v-54.4h-268.8v54.4zM268.8 464h377.6v-54.4h-377.6v54.4zM268.8 304h377.6v-54.4h-377.6v54.4zM931.2 896h-832c-54.4 0-99.2-41.6-99.2-96v-358.4c0-54.4 44.8-99.2 96-99.2 22.4 0 44.8 6.4 57.6 19.2v-358.4c0-9.6 9.6-22.4 22.4-22.4h675.2c9.6 0 16 12.8 16 22.4v358.4c19.2-12.8 35.2-19.2 57.6-19.2 54.4 0 96 44.8 96 99.2v358.4c3.2 54.4-38.4 96-89.6 96zM832 441.6v-419.2h-640v617.6c0 9.6 9.6 16 22.4 16h598.4c9.6 0 16-6.4 16-16l3.2-198.4zM985.6 441.6c0-32-25.6-60.8-57.6-60.8s-57.6 25.6-57.6 60.8v214.4h38.4v41.6h-793.6v-38.4h38.4v-217.6c0-32-25.6-60.8-57.6-60.8s-57.6 25.6-57.6 60.8v358.4c0 32 28.8 57.6 60.8 57.6h832c32 0 54.4-25.6 54.4-57.6v-358.4z" />
<glyph unicode="&#xe925;" glyph-name="Link" d="M1011.2 460.8l-307.2 294.4c-19.2 19.2-48 19.2-67.2 0s-19.2-48 0-64l224-217.6h-812.8c-25.6 0-48-19.2-48-44.8s22.4-44.8 48-44.8h812.8l-224-217.6c-19.2-19.2-19.2-48 0-64 9.6-9.6 22.4-12.8 35.2-12.8s25.6 3.2 35.2 12.8l304 294.4c16 16 16 44.8 0 64z" />
<glyph unicode="&#xe926;" glyph-name="download" d="M819.2 403.2l-307.2-307.2-307.2 307.2 57.6 57.6 211.2-211.2v710.4h80v-710.4l211.2 211.2 54.4-57.6zM1024 16h-1024v-80h1024v80z" />
<glyph unicode="&#xe927;" glyph-name="print" d="M784 560h-64c-25.6 0-48-22.4-48-48s22.4-48 48-48h64c25.6 0 48 22.4 48 48s-22.4 48-48 48zM784 496h-64c-9.6 0-16 6.4-16 16s6.4 16 16 16h64c9.6 0 16-6.4 16-16s-6.4-16-16-16zM988.8 665.6h-150.4c0 3.2 3.2 6.4 3.2 9.6v195.2c0 22.4-16 41.6-38.4 41.6h-576c-19.2 0-38.4-19.2-38.4-41.6v-195.2c0-3.2 3.2-6.4 3.2-9.6h-153.6c-22.4 0-38.4-16-38.4-35.2v-406.4c0-19.2 16-38.4 38.4-38.4h150.4v-156.8c0-19.2 16-38.4 38.4-38.4h576c19.2 0 38.4 16 38.4 38.4v156.8h150.4c19.2 0 38.4 16 38.4 38.4v406.4c-6.4 19.2-22.4 35.2-41.6 35.2zM220.8 870.4c0 6.4 3.2 9.6 6.4 9.6h576c0 0 6.4-3.2 6.4-9.6v-195.2c0-6.4-3.2-9.6-6.4-9.6h-576c0 0-6.4 3.2-6.4 9.6v195.2zM803.2 28.8c0-3.2-3.2-6.4-6.4-6.4h-572.8c-3.2 0-6.4 3.2-6.4 6.4v332.8c0 3.2 3.2 6.4 6.4 6.4h576c3.2 0 6.4-3.2 6.4-6.4v-332.8zM992 220.8c0-3.2-3.2-6.4-6.4-6.4h-150.4v147.2c0 19.2-16 38.4-38.4 38.4h-572.8c-19.2 0-38.4-16-38.4-38.4v-147.2h-147.2c-3.2 0-6.4 3.2-6.4 6.4v409.6c0 3.2 3.2 6.4 6.4 6.4h950.4c3.2 0 6.4-3.2 6.4-6.4v-409.6z" />
<glyph unicode="&#xe928;" glyph-name="X" d="M512 960c-282.77 0-512-229.23-512-512s229.23-512 512-512 512 229.23 512 512-229.23 512-512 512zM595.39 251.1l-105.29 137.67-120.49-137.67h-66.85l156.1 178.42-164.7 215.38h137.85l95.18-125.83 110.090 125.83h66.8l-145.94-166.81 171.7-226.99h-134.45zM372.18 607.010l241.65-315.92h37.020l-238.95 315.92z" />
<glyph unicode="&#xe929;" glyph-name="X-outline" d="M512 960c-281.6 0-512-230.4-512-512s230.4-512 512-512 512 230.4 512 512-230.4 512-512 512zM512-16c-256 0-467.2 208-464 464 0 256 208 467.2 464 464 256 0 467.2-208 467.2-464-3.2-256-211.2-464-467.2-464zM697.64 651.88h-65.34l-107.69-127.46-93.1 127.46h-134.83l161.11-218.16-152.69-180.73h65.38l117.85 139.45 102.99-139.45h131.5l-167.94 229.92 142.76 168.97zM645.57 293.5h-36.21l-236.37 320h38.85l233.73-320z" />
<glyph unicode="&#xe92a;" glyph-name="bluesky" d="M512 960c-282.77 0-512-229.23-512-512s229.23-512 512-512c282.77 0 512 229.23 512 512s-229.23 512-512 512zM701.469 646.004c19.656 0.297 34.678-11.495 34.678-45.883 0-13.733-7.851-115.383-12.453-131.885-15.999-57.371-74.307-72.004-126.18-63.148 90.665-15.482 113.728-66.767 63.918-118.041-94.6-97.391-135.963 24.438-146.572 55.652-1.943 5.727-2.849 8.396-2.869 6.127-0.008 2.279-0.927-0.4-2.869-6.127-10.59-31.214-51.953-153.044-146.553-55.652-49.81 51.284-26.747 102.559 63.918 118.041-51.872-8.856-110.181 5.777-126.18 63.148-4.603 16.502-12.453 118.152-12.453 131.885 0 68.776 60.091 47.157 97.17 19.23 51.394-38.711 106.684-117.211 126.977-159.33 20.303 42.119 75.572 120.619 126.977 159.33 18.544 13.968 42.836 26.355 62.492 26.652z" />
<glyph unicode="&#xe92b;" glyph-name="bluesky-outline" d="M386.591 617.236c50.76-38.233 105.367-115.764 125.409-157.363 20.052 41.599 74.639 119.131 125.409 157.363 36.631 27.591 95.97 48.934 95.97-18.993 0-13.564-7.753-113.958-12.299-130.256-15.802-56.663-73.39-71.115-124.622-62.369 89.545-15.291 112.323-65.942 63.127-116.584-93.432-96.189-134.283 24.136-144.762 54.965-1.919 5.656-2.814 8.292-2.834 6.051-0.010 2.251-0.915-0.395-2.834-6.051-10.459-30.829-51.311-151.154-144.742-54.965-49.195 50.651-26.418 101.293 63.127 116.584-51.232-8.746-108.82 5.706-124.622 62.369-4.546 16.298-12.299 116.692-12.299 130.256 0 67.927 59.349 46.574 95.97 18.993zM512.347 909.107c-255.342 0-463.076-207.733-463.076-463.076s207.733-463.076 463.076-463.076c255.342 0 463.076 207.733 463.076 463.076s-207.733 463.076-463.076 463.076zM512.347-65.968c-282.317 0-512 229.683-512 512s229.683 512 512 512c282.317 0 512-229.683 512-512s-229.683-512-512-512z" />
<glyph unicode="&#xe92c;" glyph-name="mastodon" d="M511.43 954.375c-279.348 0-505.805-226.457-505.805-505.805s226.457-505.797 505.805-505.797c279.348 0 505.797 226.449 505.797 505.797s-226.449 505.805-505.797 505.805zM507.906 668.219h0.563c75.041 0 107.435-4.443 115.984-5.664 50.677-7.227 93.425-44.521 100.023-91.844 3.591-35.152 0.481-92.361 0.461-101.75 0-2.762-0.42-27.986-0.586-30.648-4.441-67.622-48.146-94.328-94.070-102.836-0.623-0.18-1.344-0.298-2.070-0.437-29.116-5.485-60.306-6.949-89.898-7.75-7.077-0.18-14.135-0.18-21.211-0.18-29.424-0.007-58.741 3.351-87.344 10.008-0.152 0.039-0.316 0.040-0.469 0.008s-0.292-0.1-0.414-0.195c-0.121-0.095-0.217-0.214-0.281-0.352s-0.094-0.287-0.086-0.437c0.809-8.984 2.83-17.827 6.016-26.305 3.964-9.809 17.808-33.375 69.273-33.375 29.905-0.053 59.718 3.305 88.805 10.008 0.148 0.033 0.297 0.039 0.445 0.008s0.288-0.096 0.406-0.187c0.12-0.090 0.213-0.204 0.281-0.336s0.107-0.276 0.109-0.422v-33.187c-0.005-0.156-0.051-0.315-0.125-0.453-0.075-0.139-0.182-0.258-0.313-0.352-9.504-6.646-22.434-10.43-33.453-13.813-4.883-1.481-9.819-2.785-14.812-3.906-45.4-9.975-92.785-7.561-136.844 6.969-41.152 13.933-83.155 48.088-93.531 89.125-5.541 22.219-9.442 44.788-11.68 67.539-3.237 34.251-3.508 68.585-4.898 102.977-0.975 23.982-0.414 50.122 4.836 73.703 10.916 47.883 55.906 81.395 105.172 88.422 8.55 1.221 24.65 5.664 99.711 5.664zM447.375 598.156c-21.354 0-38.557-7.247-51.672-21.359-12.714-14.146-19.070-33.228-19.070-57.25v-117.57h48.25v114.102c0.021 24.022 10.496 36.273 31.477 36.273 23.201 0 34.844-14.492 34.844-43.117v-62.453h48v62.453c0 28.626 11.619 43.117 34.82 43.117 21.105 0 31.484-12.252 31.484-36.273v-114.102h48.289l0.039 117.57c0 24.035-6.356 43.117-19.070 57.25-13.157 14.113-30.354 21.359-51.688 21.359-24.674 0-43.353-9.167-55.805-27.484l-12.039-19.461-12.016 19.461c-12.451 18.317-31.128 27.484-55.844 27.484z" />
<glyph unicode="&#xe92d;" glyph-name="mastodon-outline" d="M511.426 906.042c-252.25 0-457.468-205.218-457.468-457.468s205.218-457.468 457.468-457.468c252.25 0 457.468 205.218 457.468 457.468s-205.218 457.468-457.468 457.468zM511.426-57.226c-278.898 0-505.8 226.902-505.8 505.8s226.902 505.8 505.8 505.8c278.898 0 505.8-226.902 505.8-505.8s-226.902-505.8-505.8-505.8zM724.48 570.71c-6.599 47.323-49.349 84.617-100.026 91.844-8.55 1.221-40.944 5.665-115.984 5.665h-0.56c-75.061 0-91.165-4.444-99.715-5.665-49.266-7.026-94.257-40.537-105.173-88.42-5.25-23.581-5.811-49.725-4.835-73.707 1.39-34.391 1.66-68.722 4.898-102.974 2.238-22.751 6.142-45.321 11.684-67.541 10.376-41.037 52.379-75.188 93.531-89.121 44.059-14.53 91.441-16.942 136.841-6.966 4.994 1.121 9.933 2.422 14.817 3.904 11.020 3.383 23.948 7.167 33.453 13.813 0.13 0.093 0.237 0.213 0.313 0.352 0.074 0.138 0.117 0.292 0.122 0.448v33.19c-0.002 0.146-0.038 0.29-0.107 0.421s-0.165 0.246-0.284 0.336c-0.119 0.091-0.258 0.154-0.406 0.186s-0.302 0.031-0.449-0.002c-29.087-6.703-58.894-10.062-88.799-10.009-51.466 0-65.307 23.561-69.271 33.37-3.186 8.477-5.209 17.32-6.018 26.304-0.008 0.151 0.020 0.301 0.084 0.44s0.159 0.26 0.281 0.355c0.122 0.096 0.265 0.162 0.417 0.194s0.312 0.030 0.463-0.008c28.603-6.657 57.923-10.017 87.347-10.009 7.076 0 14.132 0 21.209 0.18 29.593 0.801 60.783 2.262 89.899 7.747 0.727 0.14 1.453 0.26 2.075 0.44 45.925 8.508 89.629 35.212 94.070 102.834 0.166 2.662 0.581 27.885 0.581 30.648 0.020 9.389 3.134 66.6-0.457 101.752zM653.798 401.977h-48.29v114.104c0 24.022-10.376 36.273-31.482 36.273-23.201 0-34.822-14.493-34.822-43.119v-62.457h-48v62.457c0 28.626-11.642 43.119-34.843 43.119-20.981 0-31.461-12.251-31.482-36.273v-114.104h-48.249v117.567c0 24.022 6.357 43.106 19.071 57.252 13.115 14.113 30.319 21.359 51.673 21.359 24.716 0 43.393-9.168 55.844-27.485l12.016-19.458 12.036 19.458c12.451 18.317 31.129 27.485 55.803 27.485 21.333 0 38.537-7.246 51.694-21.359 12.715-14.133 19.071-33.217 19.071-57.252z" />
</font>
</defs>
</svg>
